Skip to main content

Grace Potter and the Nocturnals Live at UW Memorial Union Terrace on 2007-06-14

Audio Preview

etree
Grace Potter and the Nocturnals Live at UW Memorial Union Terrace on 2007-06-14




01. DJ Intro
02. Nothin' But The Water I
03. Nothin' But The Water II
04. Mastermind
05. Treat Me Right
06. insect report banter
07. Stop The Bus
08. bug report banter
09. Mr. Columbus
10. Ah Mary
11. Big White Gate
12. Meantime
13. Belladonna
14. Joey
15. If I Was From Paris
16. I've Been Watchin' You
17. encore break
18. Cortez The Killer
19. crowd
20. taper signout


Collection GracePotterandtheNocturnals
Band/Artist Grace Potter and the Nocturnals
Venue UW Memorial Union Terrace
Location Madison, WI

Source Neumann KM140's > Beyer MV100 > Sony PCM-M1 > DAT @48KHz
Lineage Master DAT > Sony PCM-M1 > S/Pdif > Audiomedia III PCI card > Powermac G3/266> Protools 4.1.1 > AIFF > Powermac G4 > Audacity > AIFF files > xACT 1.59 > FLAC encoding
Taped by morst
Transferred by morst

Notes

Grace Potter and the Nocturnals
June 14, 2007
UW Memorial Union Terrace
Madison WI


Recording: Neumann KM140's (ORTF pair shock mounted on 10' stand, Dead Center FOB, front of first terrace behind main floor level) > Beyer MV100 > Sony PCM-M1 > DAT @48KHz
Transfer: Master DAT > Sony PCM-M1 > S/Pdif > Audiomedia III PCI card > Powermac G3/266> Protools 4.1.1 > AIFF > Powermac G4 > Audacity > (conversion to 44.1 KHz, and tracking in 1/75 second increments) > AIFF files > xACT 1.59 > FLAC encoding
Taper: morst

http://www.gracepotter.com
http://www.myspace.com/gracepotterandthenocturnals


actual track listing:
Disc 1 (53:10.00)
01. DJ Intro
02. Nothin' But The Water I
03. Nothin' But The Water II
04. Mastermind
05. Treat Me Right
06. insect report banter
07. Stop The Bus
08. bug report banter
09. Mr. Columbus
10. Ah Mary
11. Big White Gate
12. Meantime

Disc 2 (58:25.00)
13. Belladonna
14. Joey
15. If I Was From Paris
16. I've Been Watchin' You
17. encore break
18. Cortez The Killer
19. crowd
20. taper signout





Setlist from Grace's cuesheet:

Nothin' But
Mastermind
Treat Me
Stop The Bus
Ah Mary
Big White
Meantime
Belladonna
Ain't No
Mr. Columbus
Paris
Watchin' U
Cortez




length expanded size cdr WAVE problems filename
1:00.00 10584044 --- -- ---xx GracePotter2007-06-14d1t01.flac
3:40.00 38808044 --- -- ---xx GracePotter2007-06-14d1t02.flac
5:30.00 58212044 --- -- ---xx GracePotter2007-06-14d1t03.flac
4:45.00 50274044 --- -- ---xx GracePotter2007-06-14d1t04.flac
7:40.00 81144044 --- -- ---xx GracePotter2007-06-14d1t05.flac
1:25.00 14994044 --- -- ---xx GracePotter2007-06-14d1t06.flac
5:15.00 55566044 --- -- ---xx GracePotter2007-06-14d1t07.flac
1:55.00 20286044 --- -- ---xx GracePotter2007-06-14d1t08.flac
6:10.00 65268044 --- -- ---xx GracePotter2007-06-14d1t09.flac
6:05.00 64386044 --- -- ---xx GracePotter2007-06-14d1t10.flac
5:15.00 55566044 --- -- ---xx GracePotter2007-06-14d1t11.flac
4:30.00 47628044 --- -- ---xx GracePotter2007-06-14d1t12.flac
10:20.00 109368044 --- -- ---xx GracePotter2007-06-14d2t01.flac
8:25.00 89082044 --- -- ---xx GracePotter2007-06-14d2t02.flac
5:35.00 59094044 --- -- ---xx GracePotter2007-06-14d2t03.flac
12:50.00 135828044 --- -- ---xx GracePotter2007-06-14d2t04.flac
1:35.00 16758044 --- -- ---xx GracePotter2007-06-14d2t05.flac
13:45.00 145530044 --- -- ---xx GracePotter2007-06-14d2t06.flac
4:30.00 47628044 --- -- ---xx GracePotter2007-06-14d2t07.flac
1:25.00 14994044 --- -- ---xx GracePotter2007-06-14d2t08.flac
111:35.00 1180998880 B (totals for 20 files, 0.5508 overall compression ratio)


-=-=-=-=-=-=-=-=-=-=-=-=-=-=-=-=-=-=-=-=-=-=-=-=-
Soundscape Preservation Society Founded 1991
http://www.iamtypingwithonefinger.com/SPS.html
-=-=-=-=-=-=-=-=-=-=-=-=-=-=-=-=-=-=-=-=-=-=-=-=-

comment
Reviews

Reviewer: gdjunkie - favoritefavoritefavoritefavoritefavorite - September 23, 2012
Subject: Awesome show!
This was my b-day! Met Grace and the band just hanging out by thier van before the show. During the DJ banter I'm the guy who said Grace is hot as hell. Great to be able to hear this again. Thanks for taping and posting this.
Reviewer: morst - favoritefavoritefavoritefavoritefavorite - October 8, 2007
Subject: Great band, great show!
Grace rocks©! :-)
DOWNLOAD OPTIONS
Uploaded by
morst
on 6/18/2007
Views
44,100
Favorites
5
Reviews
2
SIMILAR ITEMS (based on metadata)
eye
Title
Date Archived
Creator
Natty Nation
by Natty Nation
etree
eye 20,837
favorite 2
comment 1
( 1 reviews )
Source: KM140 > MV100 > SBM-1 (Oade Mod) > D100
Grace Potter and the Nocturnals
by Grace Potter and the Nocturnals
etree
eye 159
favorite 1
comment 0
Source: Schoeps mk41v (dina, fob) > kc5 > m222 > nt222 + mk8 (blumlien, fob) > kc5 > cmc6 > lunatec V3 (analog out) > SD744T (24/96)
Grace Potter and the Nocturnals
by Grace Potter and the Nocturnals
etree
eye 1,299
favorite 1
comment 1
favoritefavoritefavoritefavoritefavorite ( 1 reviews )
Source: Schoeps mk41v (dina, fob) > kc5 > m222 > nt222 + mk8 (blumlien, fob) > kc5 > cmc6 > lunatec V3 (analog out) > SD744T (24/96)Schoeps mk41v (dina, fob) > kc5 > m222 > nt222 + mk8 (blumlien, fob) > kc5 > cmc6 > lunatec V3 (analog out) > SD744T (24/96)
Grace Potter and the Nocturnals
by Grace Potter and the Nocturnals
etree
eye 7,894
favorite 1
comment 0
Source: Schoeps mk41|cmc4 > edirol R4 (oade basic mod)
Grace Potter and the Nocturnals
by Grace Potter and the Nocturnals
etree
eye 2,705
favorite 1
comment 1
( 1 reviews )
Source: Microtech Gefell M200's(DIN)>Audio Magic Hyper-Conductors>Edirol R-4(Oade T mod) @ 24/96
Grace Potter and the Nocturnals
by Grace Potter and the Nocturnals
etree
eye 2,964
favorite 2
comment 0
Source: Rode NT-4>KindKables>OadeBCM Marantz PMD 671
Grace Potter and the Nocturnals
by Grace Potter and the Nocturnals
etree
eye 1,953
favorite 2
comment 0
Source: Neumann KM140s (fob/floor) > Sound Devices MP2 > Edirol R09 (24/48) WAV
Grace Potter and the Nocturnals
by Grace Potter and the Nocturnals
etree
eye 389
favorite 2
comment 0
Source: Studio Projects LSD2(blumein,Right Corner of Board,10'high) > UA-5 Digimod > Optical > H120(16/44.1)
Grace Potter and the Nocturnals
by Grace Potter and the Nocturnals
etree
eye 865
favorite 2
comment 0
Source: AKG 483 > Tascam DR-680 24/48
Grace Potter and the Nocturnals
by Grace Potter and the Nocturnals
etree
eye 544
favorite 2
comment 0
Source: Schoeps MK4>KC5>CMC6>Sonosax SX-M2>Apogee Mini-me(24bit/96 khz aes out)>Edirol R-4